#TITLE:七年的爱;
#SUBTITLE:;
#ARTIST:金贤?;
#TITLETRANSLIT:;
#SUBTITLETRANSLIT:;
#ARTISTTRANSLIT:;
#CREDIT:;
#BANNER:a-logo.jpg;
#BACKGROUND:a.jpg;
#LYRICSPATH:;
#CDTITLE:Lan.png;
#MUSIC:;
#OFFSET:0.000;
#SAMPLESTART:71.846;
#SAMPLELENGTH:12.000;
#SELECTABLE:YES;
#BPMS:0.000=70.985,20.000=141.970,176.000=70.985,178.000=141.970,274.000=70.985,276.000=141.970;
#STOPS:;
#BGCHANGES:;
// cache tags:
#FIRSTBEAT:1.000;
#LASTBEAT:306.000;
#SONGFILENAME:Songs/SDO 2/a/a.sm;
#HASMUSIC:0;
#HASBANNER:1;
#MUSICLENGTH:0.000;
// end cache tags

//---------------dance-single - sky----------------
#NOTES:
     dance-single:
     sky:
     Hard:
     9:
     0.000,0.000,0.000,0.000,0.000,660.000,210.000,3.000,0.000,1.000:

0000
0000
0000
0000
1000
0000
0100
0000
1010
0000
0001
0010
0000
0100
0000
0001
,
0000
0000
1000
0100
0000
0000
1000
0000
0101
0000
0010
0001
0000
1000
0000
0001
,
0000
0000
0000
0000
0000
0000
1000
0000
0101
0000
0100
0010
0000
1000
0000
0010
,
0000
0000
0100
1000
0000
0010
0000
0000
1010
0100
0010
0001
0000
1000
0010
0100
,
0000
0000
0000
0000
0000
0000
1000
0100
,
0110
1000
0101
1000
0110
1000
0101
1000
,
0110
1000
0101
1000
0110
1000
0101
1000
,
0110
1000
0101
1000
0110
1000
0101
1000
,
0110
1000
0101
1000
0110
1000
0101
1000
,
0110
0001
1010
0001
0110
0001
1010
0001
,
0110
0001
1010
0001
0110
0001
1010
0001
,
0110
0001
1010
0001
0110
0001
1010
0001
,
0100
0000
0001
0001
0010
0000
0001
0001
0100
0000
0001
0001
0010
0000
0001
0001
,
1100
0010
0101
0010
0100
0010
0101
1000
,
0010
0100
1010
0001
0100
0010
0101
1000
,
0010
0100
1010
0001
0100
0010
0101
1000
,
0010
0100
1010
0001
0100
0010
0101
1000
,
0010
0100
1010
0001
0100
0010
0101
1000
,
0010
0100
1010
0001
0100
0010
0101
1000
,
0010
0100
1010
0001
0100
0010
0101
1000
,
0010
0000
0001
0001
0100
0000
0001
0001
0010
0000
0001
0001
0100
0000
0001
0001
,
1000
1000
0110
0100
0001
0001
0110
0010
,
1000
1000
0110
0100
0001
0001
0110
0010
,
1000
1000
0110
0100
0001
0001
0110
0010
,
1000
1000
0110
0100
0001
0001
0110
0010
,
1000
1000
0110
0100
0001
0001
0110
0010
,
1000
1000
0110
0100
0001
0001
0110
0010
,
1000
1000
0110
0100
0001
0001
0110
0010
,
1000
0000
0010
0010
0100
0000
0010
0010
1000
0000
0010
0010
0100
0000
0010
0010
,
1100
0100
1010
0100
0011
0010
0101
0010
,
1100
0100
0101
0010
0011
0010
1010
0100
,
0110
0010
1010
0100
0110
0010
0101
0010
,
1100
0100
0101
0010
0011
0010
1010
0100
,
1000
0100
0010
0000
0101
0000
0010
0000
0110
0000
0100
0000
1010
0000
0100
0000
,
0001
0010
0100
0000
1010
0000
0100
0000
0110
0000
0010
0000
0101
0000
0010
0000
,
1001
0100
1001
0010
1001
0100
1001
0010
,
1000
0000
0010
0010
0100
0000
0010
0010
1000
0000
0010
0010
0100
0000
0010
0010
,
1000
0100
0010
0100
1001
0010
0100
0010
,
1001
0100
0010
0100
1001
0010
0100
0010
,
0101
0010
0100
0010
1001
0010
0100
0010
,
0101
0010
0100
0010
1001
0100
0010
0100
,
1001
0101
1001
0101
,
1001
0001
0101
0001
1001
0001
0101
0001
,
1001
0001
0001
0001
0101
0001
0001
0001
1001
0001
0001
0001
0101
0001
0001
0001
,
1001
0000
0000
0000
1100
0101
0011
1010
,
0110
1010
1100
0101
0110
1010
0011
1010
,
0110
0101
1100
0101
0110
1010
0011
0101
,
0110
1010
1100
0101
0110
1010
0011
1010
,
0110
0101
1100
0101
0110
1010
0011
0101
,
0110
1010
1100
0101
0110
1010
0011
1010
,
0011
1010
0110
1010
0110
0101
1100
0101
,
0110
1010
0011
0101
0110
1010
1100
0101
,
0011
0000
0101
0000
1100
0000
0101
0000
1000
0100
0010
0001
1000
0100
0010
0001
,
1000
0010
0100
0001
1000
0010
0100
0001
1000
0100
0010
0001
1000
0100
0010
0001
,
1000
0010
0100
0001
1000
0010
0100
0001
1000
0100
0010
0001
1000
0100
0010
0001
,
1000
0010
0100
0001
1000
0010
0100
0001
1000
0100
0010
0001
1000
0100
0010
0001
,
1000
0010
0100
0001
1000
0010
0100
0001
1000
0100
0010
0001
1000
0100
0010
0001
,
1000
0010
0100
0001
1000
0010
0100
0001
1000
0100
0010
0001
1000
0100
0010
0001
,
1000
0010
0100
0001
1000
0010
0100
0001
1010
0000
0110
0000
1010
0000
0110
0000
,
1010
0110
1010
0110
1010
0110
1010
0110
,
1010
0010
0110
0010
1010
0010
0110
0010
1010
0000
0010
0000
0101
0000
0001
0010
,
0100
0000
0100
0000
0110
0000
1000
0100
0010
0000
0010
0000
0110
0000
0001
0010
,
0100
0000
0100
0000
0110
0000
1000
0100
0010
0000
0010
0000
0110
0000
0001
0010
,
0100
0000
0100
0000
0110
0000
1000
0100
0010
0000
0010
0000
0110
0000
0001
0010
,
0100
0000
0100
0000
0110
0000
1000
0100
0010
0000
0010
0000
0110
0000
0001
0010
,
0100
0000
0100
0000
0110
0000
1000
0100
0010
0000
0010
0000
0110
0000
0001
0010
,
0100
0000
0100
0000
0110
0000
1000
0100
0010
0000
0010
0000
0110
0000
0001
0010
,
0100
0000
0100
0000
0110
0000
1000
0100
0010
0000
0010
0000
0110
0000
0001
0010
,
0100
0100
0110
0000
1001
0000
1000
0100
,
1010
0000
0001
0010
0000
0100
0000
0001
,
0000
0000
1000
0100
0000
0000
1000
0000
,
0101
0000
0010
0001
0000
1000
0000
0002
,
0000
0000
0000
1003
,
0101
0000
0100
0010
0000
1000
0000
0010
,
0000
0000
0100
1000
0000
0010
0000
0000
,
1010
0100
0010
0001
0000
1000
0010
0200
,
0020
0000
1331
0000
;
